website statistics
Valley.of.Tears.S01E03.My.Rock.My.Fortress.1080p.HMAX.WEB-DL.DD5.... > 외국티비 > 인터넷의 시작 더토렌트
홈 > 티비 > 외국티비
외국티비
 [구글검색] 구글에서 더토렌트 검색 - 구글에서 토렌트를 검색하실 때에 검색어 뒤에 더토렌트를 꼭 붙여서 검색하세요.     더토렌트에서 광고중인 웹에 문제가 있다면 상단에 나와 있는 운영자 이메일로 연락 주십시오.     다운로드가 완료될 때까지 저희가 함께하겠습니다. 편안한 시간 되십시오.

웹하드 도도파일

   

   

Valley.of.Tears.S01E03.My.Rock.My.Fortress.1080p.HMAX.WEB-DL.DD5....

https://www.imdb.com/title/tt8190688/

General
Format : Matroska
Format version : Version 4
File size : 2.84 GiB
Duration : 47 min 11 s
Overall bit rate mode : Variable
Overall bit rate : 8 628 kb/s
Writing application : mkvmerge v21.0.0 ('Tardigrades Will Inherit The Earth') 64-bit
Writing library : libebml v1.3.5 + libmatroska v1.4.8

Video
ID : 1
Format : AVC
Format/Info : Advanced Video Codec
Format profile : [email protected]
Format settings : CABAC / 4 Ref Frames
Format settings, CABAC : Yes
Format settings, Reference : 4 frames
Codec ID : V_MPEG4/ISO/AVC
Duration : 47 min 11 s
Bit rate mode : Variable
Bit rate : 8 242 kb/s
Maximum bit rate : 12.4 Mb/s
Width : 1 920 pixels
Height : 1 080 pixels
Display aspect ratio : 16:9
Frame rate mode : Constant
Frame rate : 23.976 (24000/1001) FPS
Color space : YUV
Chroma subsampling : 4:2:0
Bit depth : 8 bits
Scan type : Progressive
Bits/(Pixel*Frame) : 0.166
Stream size : 2.72 GiB (96%)
Default : Yes
Forced : No
Color range : Limited
Color primaries : BT.709
Transfer characteristics : BT.709
Matrix coefficients : BT.709

Audio
ID : 2
Format : AC-3
Format/Info : Audio Coding 3
Commercial name : Dolby Digital
Codec ID : A_AC3
Duration : 47 min 11 s
Bit rate mode : Constant
Bit rate : 384 kb/s
Channel(s) : 6 channels
Channel layout : L R C LFE Ls Rs
Sampling rate : 48.0 kHz
Frame rate : 31.250 FPS (1536 SPF)
Bit depth : 16 bits
Compression mode : Lossy
Stream size : 130 MiB (4%)
Language : Hebrew
Service kind : Complete Main
Default : Yes
Forced : No

Menu
00:46:51.000 : en:Credits



https://www.imdb.com/title/tt8190688/

General
Format : Matroska
Format version : Version 4
File size : 2.84 GiB
Duration : 47 min 11 s
Overall bit rate mode : Variable
Overall bit rate : 8 628 kb/s
Writing application : mkvmerge v21.0.0 ('Tardigrades Will Inherit The Earth') 64-bit
Writing library : libebml v1.3.5 + libmatroska v1.4.8

Video
ID : 1
Format : AVC
Format/Info : Advanced Video Codec
Format profile : [email protected]
Format settings : CABAC / 4 Ref Frames
Format settings, CABAC : Yes
Format settings, Reference : 4 frames
Codec ID : V_MPEG4/ISO/AVC
Duration : 47 min 11 s
Bit rate mode : Variable
Bit rate : 8 242 kb/s
Maximum bit rate : 12.4 Mb/s
Width : 1 920 pixels
Height : 1 080 pixels
Display aspect ratio : 16:9
Frame rate mode : Constant
Frame rate : 23.976 (24000/1001) FPS
Color space : YUV
Chroma subsampling : 4:2:0
Bit depth : 8 bits
Scan type : Progressive
Bits/(Pixel*Frame) : 0.166
Stream size : 2.72 GiB (96%)
Default : Yes
Forced : No
Color range : Limited
Color primaries : BT.709
Transfer characteristics : BT.709
Matrix coefficients : BT.709

Audio
ID : 2
Format : AC-3
Format/Info : Audio Coding 3
Commercial name : Dolby Digital
Codec ID : A_AC3
Duration : 47 min 11 s
Bit rate mode : Constant
Bit rate : 384 kb/s
Channel(s) : 6 channels
Channel layout : L R C LFE Ls Rs
Sampling rate : 48.0 kHz
Frame rate : 31.250 FPS (1536 SPF)
Bit depth : 16 bits
Compression mode : Lossy
Stream size : 130 MiB (4%)
Language : Hebrew
Service kind : Complete Main
Default : Yes
Forced : No

Menu
00:46:51.000 : en:Credits




Valley.of.Tears.S01E03.My.Rock.My.Fortress.1080p.HMAX.WEB-DL.DD5....

번역하기: 한국 한국어


<< 이 게시판에서 관련된 자료 목록 >>
 [구글검색] 구글에서 더토렌트 검색 - 구글에서 토렌트를 검색하실 때에 검색어 뒤에 더토렌트를 꼭 붙여서 검색하세요.     더토렌트에서 광고중인 웹에 문제가 있다면 상단에 나와 있는 운영자 이메일로 연락 주십시오.     다운로드가 완료될 때까지 저희가 함께하겠습니다. 편안한 시간 되십시오.

웹하드 파일마루

   

   

현재 인기있는 자료


  • 글이 없습니다.

외국티비 인기글


오늘의 인기글


새댓글


Facebook Twitter GooglePlus KakaoStory NaverBand